+ ShareSpark.net »  :::: Bollywood Zone » Bollywood Movies (Original Rips) » TeamSSX Bollywood Releases
|- Vodka Diaries 2018 WEBRip 480p x264 YsB TeaM Fl & SSX


100% Bill Offer

Vodka Diaries 2018 WEBRip 480p x264 YsB TeaM Fl & SSX

0 Members and 1 Guest are viewing this topic.

July 07, 2018, 01:32:55 PM
  • Admin
  • Legend Member
  • ****
  • Topic Author
  • Thank You: 655
  • Reputation: 641
  • Activity:
    1%
  • Country: cn
  • Posts: 2394
  • Topics: 521
  • Join Date: Dec 2011
  • ShareSpark Member
  • Expertises:
  • Bollywood Movies
  • PC Applications
  • PC Games
Vodka Diaries 2018 WEBRip 480p x264 YsB TeaM Fl & SSX



:info:


Code: [Select]
General
Complete name               : Vodka Diaries 2018 WEBRip 480p x264 YsB TeaM Fl & SSX.mkv
Format                      : Matroska
Format version              : Version 4 / Version 2
File size                   : 416 MiB
Duration                    : 1 h 52 min
Overall bit rate            : 516 kb/s
Movie name                  : Vodka Diaries 2018 WEBRip 480p x264 YsB TeaM Fl & SSX
Encoded date                : UTC 2018-07-07 07:15:49
Writing application         : mkvmerge v8.1.0 ('Psychedelic Postcard') 64bit
Writing library             : libebml v1.3.1 + libmatroska v1.4.2

Video
ID                          : 1
Format                      : AVC
Format/Info                 : Advanced Video Codec
Format profile              : [email protected]
Format settings             : CABAC / 3 Ref Frames
Format settings, CABAC      : Yes
Format settings, ReFrames   : 3 frames
Codec ID                    : V_MPEG4/ISO/AVC
Duration                    : 1 h 52 min
Bit rate                    : 450 kb/s
Width                       : 848 pixels
Height                      : 320 pixels
Display aspect ratio        : 2.650
Frame rate mode             : Constant
Frame rate                  : 25.000 FPS
Color space                 : YUV
Chroma subsampling          : 4:2:0
Bit depth                   : 8 bits
Scan type                   : Progressive
Bits/(Pixel*Frame)          : 0.066
Stream size                 : 363 MiB (87%)
Title                       : Vodka Diaries (2018) WEBRip 480p x264 YsB TeaM Fl & SSX
Writing library             : x264 core 155 r2901 7d0ff22

Audio
ID                          : 2
Format                      : AC-3
Format/Info                 : Audio Coding 3
Codec ID                    : A_AC3
Duration                    : 1 h 52 min
Bit rate mode               : Constant
Bit rate                    : 64.0 kb/s
Channel(s)                  : 2 channels
Channel positions           : Front: L R
Sampling rate               : 44.1 kHz
Bit depth                   : 16 bits
Compression mode            : Lossy
Stream size                 : 51.6 MiB (12%)
Title                       : YsB TeaM Fl
Language                    : Hindi
Service kind                : Complete Main
Default                     : Yes
Forced                      : No

:ss:







:download:









Torrent file attached.



Thanks.
TeaM FL , TeaM SSX, AnantaRdp



Share this topic on FacebookShare this topic on GoogleShare this topic on MySpaceShare this topic on TwitterShare this topic on Yahoo

« Last Edit: July 07, 2018, 01:33:37 PM by Ðj sαм »


Thanks given by:


July 07, 2018, 01:34:39 PM
Reply #1
  • Admin
  • Legend Member
  • ****
  • Topic Author
  • Thank You: 655
  • Reputation: 641
  • Activity:
    1%
  • Country: cn
  • Posts: 2394
  • Topics: 521
  • Join Date: Dec 2011
  • ShareSpark Member
  • Expertises:
  • Bollywood Movies
  • PC Applications
  • PC Games
@honey01  Check now. Your requested movie uploaded... :hats:

July 07, 2018, 02:57:54 PM
Reply #2
  • Addic7ed
  • Legend Member
  • ****
  • Thank You: 84
  • Reputation: 42
  • Activity:
    37%
  • Posts: 1660
  • Topics: 133
  • Join Date: May 2012
  • ShareSpark Member

July 07, 2018, 03:57:50 PM
Reply #3
  • Conqueror
  • Elite Forces
  • *****
  • Thank You: 493
  • Reputation: 185
  • Activity:
    15.8%
  • Country: in
  • Posts: 1132
  • Topics: 490
  • Join Date: Oct 2015
  • Hit ThanX Button 🔳 N Repute Button 🔳
Hit Thnx Button 🔳 N + Repute Button 🔳 Always Appreciate UploadeR 🤗 GiVe Respect GeT Respect :yu:

 

Related Topics

  Subject / Started by Replies Last post
0 Replies
1210 Views
Last post April 16, 2016, 10:15:49 AM
by validusvyto
1 Replies
1707 Views
Last post January 26, 2018, 09:11:06 AM
by Changezi
1 Replies
1379 Views
Last post June 24, 2018, 09:16:51 AM
by honey01
1 Replies
2200 Views
Last post July 19, 2018, 06:44:33 PM
by honey01
0 Replies
2360 Views
Last post July 18, 2018, 10:01:38 PM
by Ðj sαм




Back to top