+ ShareSpark.net »  :::: Bollywood Zone » Bollywood Movies (Original Rips) » TeamSSX Bollywood Releases
|- Mukkabaaz 2018 480p WEBRip x264 YsB TeaM Fl & SSX


Mastercard 10% Off

Mukkabaaz 2018 480p WEBRip x264 YsB TeaM Fl & SSX

0 Members and 1 Guest are viewing this topic.

June 23, 2018, 11:18:11 PM
  • Admin
  • Legend Member
  • ****
  • Topic Author
  • Thank You: 655
  • Reputation: 641
  • Activity:
    1%
  • Country: cn
  • Posts: 2394
  • Topics: 521
  • Join Date: Dec 2011
  • ShareSpark Member
  • Expertises:
  • Bollywood Movies
  • PC Applications
  • PC Games
Mukkabaaz 2018 480p WEBRip x264 YsB TeaM Fl & SSX



:info:
Code: [Select]
General
Complete name               : Mukkabaaz 2018 480p WEBRip x264 YsB TeaM Fl & SSX.mkv
Format                      : Matroska
Format version              : Version 4 / Version 2
File size                   : 573 MiB
Duration                    : 2 h 35 min
Overall bit rate            : 516 kb/s
Movie name                  : Mukkabaaz 2018 480p WEBRip x264 YsB TeaM Fl & SSX

Video
ID                          : 1
Format                      : AVC
Format/Info                 : Advanced Video Codec
Format profile              : [email protected]
Codec ID                    : V_MPEG4/ISO/AVC
Duration                    : 2 h 35 min
Bit rate                    : 450 kb/s
Width                       : 848 pixels
Height                      : 352 pixels
Display aspect ratio        : 2.40:1
Frame rate mode             : Constant
Frame rate                  : 24.000 FPS
Color space                 : YUV
Chroma subsampling          : 4:2:0
Bit depth                   : 8 bits
Scan type                   : Progressive
Bits/(Pixel*Frame)          : 0.063
Stream size                 : 500 MiB (87%)
Title                       : YsB TeaM Fl

Audio
ID                          : 2
Format                      : AC-3
Format/Info                 : Audio Coding 3
Codec ID                    : A_AC3
Duration                    : 2 h 35 min
Bit rate mode               : Constant
Bit rate                    : 64.0 kb/s
Channel(s)                  : 2 channels
Channel positions           : Front: L R
Sampling rate               : 48.0 kHz
Bit depth                   : 16 bits
Compression mode            : Lossy
Stream size                 : 71.1 MiB (12%)
Title                       : YsB TeaM Fl
Language                    : Hindi

Text
ID                          : 3
Format                      : UTF-8
Codec ID                    : S_TEXT/UTF8
Codec ID/Info               : UTF-8 Plain Text
Duration                    : 2 h 31 min
Count of elements           : 2273
Stream size                 : 66.9 KiB (0%)
Title                       : YsB TeaM Fl
Language                    : English


:ss:







:download:










Torrent File Attached


Thanks.
TeaM FL , TeaM SSX, AnantaRdp



Share this topic on FacebookShare this topic on GoogleShare this topic on MySpaceShare this topic on TwitterShare this topic on Yahoo



Thanks given by:


June 24, 2018, 09:16:51 AM
Reply #1
  • Addic7ed
  • Legend Member
  • ****
  • Thank You: 84
  • Reputation: 41
  • Activity:
    37%
  • Posts: 1660
  • Topics: 133
  • Join Date: May 2012
  • ShareSpark Member

 

Related Topics

  Subject / Started by Replies Last post
0 Replies
772 Views
Last post April 14, 2018, 04:58:18 PM
by Rάήνίјάч1234
0 Replies
465 Views
Last post April 15, 2018, 05:17:38 PM
by Special26
3 Replies
1138 Views
Last post July 07, 2018, 03:57:50 PM
by JackRoSe
1 Replies
2198 Views
Last post July 19, 2018, 06:44:33 PM
by honey01
0 Replies
2359 Views
Last post July 18, 2018, 10:01:38 PM
by Ðj sαм




Back to top