+ ShareSpark.net »  :::: Hollywood Zone » Hollywood Movies (Original Rips) » HEVC / H.265 Releases
|- Baby Driver 2017 (1080p Bluray x265 HEVC 10bit AAC 5.1 Tigole)


Mastercard 10% Off
  • Baby Driver 2017 (1080p Bluray x265 HEVC 10bit AAC 5.1 Tigole) 5 1
Currently:  

Baby Driver 2017 (1080p Bluray x265 HEVC 10bit AAC 5.1 Tigole)

0 Members and 1 Guest are viewing this topic.

May 27, 2018, 07:12:38 PM






General
Format : Matroska
Format version : Version 4 / Version 2
File size : 3.18 GiB
Duration : 1 h 52 min
Overall bit rate : 4 041 kb/s
Movie name : Baby Driver
Encoded date : UTC 2017-10-01 17:25:47
Writing application : mkvmerge v14.0.0 ('Flow') 64bit
Writing library : libebml v1.3.4 + libmatroska v1.4.5

Video
ID : 1
Format : HEVC
Format/Info : High Efficiency Video Coding
Format profile : Main [email protected]@Main
Codec ID : V_MPEGH/ISO/HEVC
Duration : 1 h 52 min
Bit rate : 3 339 kb/s
Width : 1 920 pixels
Height : 804 pixels
Display aspect ratio : 2.40:1
Frame rate mode : Constant
Frame rate : 23.976 (24000/1001) FPS
Color space : YUV
Chroma subsampling : 4:2:0
Bit depth : 10 bits
Bits/(Pixel*Frame) : 0.090
Stream size : 2.63 GiB (83%)
Writing library : x265 2.5+14-2718cb5dd67f:[Windows][GCC 7.1.0][64 bit] 10bit
Encoding settings : cpuid=1173503 / frame-threads=3 / numa-pools=8 / wpp / no-pmode / no-pme / no-psnr / no-ssim / log-level=2 / input-csp=1 / input-res=1920x804 / interlace=0 / total-frames=162072 / level-idc=0 / high-tier=1 / uhd-bd=0 / ref=4 / no-allow-non-conformance / no-repeat-headers / annexb / no-aud / no-hrd / info / hash=0 / no-temporal-layers / open-gop / min-keyint=23 / keyint=250 / bframes=4 / b-adapt=2 / b-pyramid / bframe-bias=0 / rc-lookahead=25 / lookahead-slices=4 / scenecut=40 / no-intra-refresh / ctu=64 / min-cu-size=8 / rect / no-amp / max-tu-size=32 / tu-inter-depth=1 / tu-intra-depth=1 / limit-tu=0 / rdoq-level=2 / dynamic-rd=0.00 / no-ssim-rd / signhide / no-tskip / nr-intra=0 / nr-inter=0 / no-constrained-intra / strong-intra-smoothing / max-merge=3 / limit-refs=3 / limit-modes / me=3 / subme=3 / merange=57 / temporal-mvp / weightp / no-weightb / no-analyze-src-pics / deblock=0:0 / sao / no-sao-non-deblock / rd=4 / no-early-skip / rskip / no-fast-intra / no-tskip-fast / no-cu-lossless / no-b-intra / no-splitrd-skip / rdpenalty=0 / psy-rd=2.00 / psy-rdoq=1.00 / no-rd-refine / analysis-reuse-mode=0 / no-lossless / cbqpoffs=0 / crqpoffs=0 / rc=abr / bitrate=3338 / qcomp=0.60 / qpstep=4 / stats-write=0 / stats-read=2 / cplxblur=20.0 / qblur=0.5 / ipratio=1.40 / pbratio=1.30 / aq-mode=2 / aq-strength=1.00 / cutree / zone-count=0 / no-strict-cbr / qg-size=32 / no-rc-grain / qpmax=69 / qpmin=0 / no-const-vbv / sar=0 / overscan=0 / videoformat=5 / range=0 / colorprim=2 / transfer=2 / colormatrix=2 / chromaloc=0 / display-window=0 / max-cll=0,0 / min-luma=0 / max-luma=1023 / log2-max-poc-lsb=8 / vui-timing-info / vui-hrd-info / slices=1 / opt-qp-pps / opt-ref-list-length-pps / no-multi-pass-opt-rps / scenecut-bias=0.05 / no-opt-cu-delta-qp / no-aq-motion / no-hdr / no-hdr-opt / no-dhdr10-opt / analysis-reuse-level=5 / scale-factor=0 / refine-intra=0 / refine-inter=0 / refine-mv=0 / no-limit-sao / ctu-info=0
Default : Yes
Forced : No

Audio #1
ID : 2
Format : AAC
Format/Info : Advanced Audio Codec
Format profile : LC
Codec ID : A_AAC
Duration : 1 h 52 min
Bit rate : 454 kb/s
Channel(s) : 6 channels
Channel positions : Front: L C R, Side: L R, LFE
Sampling rate : 48.0 kHz
Frame rate : 46.875 FPS (1024 spf)
Compression mode : Lossy
Delay relative to video : 20 ms
Stream size : 366 MiB (11%)
Language : English
Default : Yes
Forced : No

Audio #2
ID : 3
Format : AAC
Format/Info : Advanced Audio Codec
Format profile : HE-AAC / LC
Codec ID : A_AAC
Duration : 1 h 52 min
Bit rate : 66.2 kb/s
Channel(s) : 2 channels
Channel positions : Front: L R
Sampling rate : 48.0 kHz / 24.0 kHz
Frame rate : 23.438 FPS (1024 spf)
Compression mode : Lossy
Delay relative to video : 40 ms
Stream size : 53.1 MiB (2%)
Title : Commentary 1
Language : English
Default : No
Forced : No

Audio #3
ID : 4
Format : AAC
Format/Info : Advanced Audio Codec
Format profile : HE-AAC / LC
Codec ID : A_AAC
Duration : 1 h 52 min
Bit rate : 66.2 kb/s
Channel(s) : 2 channels
Channel positions : Front: L R
Sampling rate : 48.0 kHz / 24.0 kHz
Frame rate : 23.438 FPS (1024 spf)
Compression mode : Lossy
Delay relative to video : 40 ms
Stream size : 53.1 MiB (2%)
Title : Commentary 2
Language : English
Default : No
Forced : No

Text #1
ID : 5
Format : VobSub
Muxing mode : zlib
Codec ID : S_VOBSUB
Codec ID/Info : Picture based subtitle format used on DVDs
Duration : 1 h 51 min
Bit rate : 15.5 kb/s
Count of elements : 2171
Stream size : 12.4 MiB (0%)
Language : English
Default : No
Forced : No

Text #2
ID : 6
Format : VobSub
Muxing mode : zlib
Codec ID : S_VOBSUB
Codec ID/Info : Picture based subtitle format used on DVDs
Duration : 1 h 16 min
Bit rate : 255 b/s
Count of elements : 49
Stream size : 143 KiB (0%)
Title : Forced
Language : English
Default : No
Forced : Yes

Text #3
ID : 7
Format : VobSub
Muxing mode : zlib
Codec ID : S_VOBSUB
Codec ID/Info : Picture based subtitle format used on DVDs
Duration : 1 h 51 min
Bit rate : 6 481 b/s
Count of elements : 1363
Stream size : 5.18 MiB (0%)
Language : Chinese
Default : No
Forced : No

Text #4
ID : 8
Format : VobSub
Muxing mode : zlib
Codec ID : S_VOBSUB
Codec ID/Info : Picture based subtitle format used on DVDs
Duration : 1 h 52 min
Bit rate : 13.5 kb/s
Count of elements : 1840
Stream size : 10.8 MiB (0%)
Title : Commentary 1
Language : Chinese
Default : No
Forced : No

Text #5
ID : 9
Format : VobSub
Muxing mode : zlib
Codec ID : S_VOBSUB
Codec ID/Info : Picture based subtitle format used on DVDs
Duration : 1 h 52 min
Bit rate : 15.5 kb/s
Count of elements : 2068
Stream size : 12.5 MiB (0%)
Title : Commentary 2
Language : Chinese
Default : No
Forced : No

Text #6
ID : 10
Format : VobSub
Muxing mode : zlib
Codec ID : S_VOBSUB
Codec ID/Info : Picture based subtitle format used on DVDs
Duration : 1 h 50 min
Bit rate : 7 469 b/s
Count of elements : 1337
Stream size : 5.88 MiB (0%)
Language : French
Default : No
Forced : No

Text #7
ID : 11
Format : VobSub
Muxing mode : zlib
Codec ID : S_VOBSUB
Codec ID/Info : Picture based subtitle format used on DVDs
Duration : 1 h 51 min
Bit rate : 5 949 b/s
Count of elements : 1358
Stream size : 4.76 MiB (0%)
Language : Korean
Default : No
Forced : No

Text #8
ID : 12
Format : VobSub
Muxing mode : zlib
Codec ID : S_VOBSUB
Codec ID/Info : Picture based subtitle format used on DVDs
Duration : 1 h 52 min
Bit rate : 13.3 kb/s
Count of elements : 1841
Stream size : 10.7 MiB (0%)
Title : Commentary 1
Language : Korean
Default : No
Forced : No

Text #9
ID : 13
Format : VobSub
Muxing mode : zlib
Codec ID : S_VOBSUB
Codec ID/Info : Picture based subtitle format used on DVDs
Duration : 1 h 50 min
Bit rate : 12.1 kb/s
Count of elements : 2043
Stream size : 9.58 MiB (0%)
Title : Commentary 2
Language : Korean
Default : No
Forced : No

Text #10
ID : 14
Format : VobSub
Muxing mode : zlib
Codec ID : S_VOBSUB
Codec ID/Info : Picture based subtitle format used on DVDs
Duration : 1 h 51 min
Bit rate : 8 924 b/s
Count of elements : 1328
Stream size : 7.13 MiB (0%)
Language : Spanish
Default : No
Forced : No

Text #11
ID : 15
Format : VobSub
Muxing mode : zlib
Codec ID : S_VOBSUB
Codec ID/Info : Picture based subtitle format used on DVDs
Duration : 1 h 52 min
Bit rate : 18.1 kb/s
Count of elements : 1836
Stream size : 14.5 MiB (0%)
Title : Commentary 1
Language : Spanish
Default : No
Forced : No

Text #12
ID : 16
Format : VobSub
Muxing mode : zlib
Codec ID : S_VOBSUB
Codec ID/Info : Picture based subtitle format used on DVDs
Duration : 1 h 50 min
Bit rate : 19.8 kb/s
Count of elements : 2041
Stream size : 15.6 MiB (0%)
Title : Commentary 2
Language : Spanish
Default : No
Forced : No

Text #13
ID : 17
Format : VobSub
Muxing mode : zlib
Codec ID : S_VOBSUB
Codec ID/Info : Picture based subtitle format used on DVDs
Duration : 1 h 51 min
Bit rate : 6 019 b/s
Count of elements : 1376
Stream size : 4.81 MiB (0%)
Language : Thai
Default : No
Forced : No

Text #14
ID : 18
Format : VobSub
Muxing mode : zlib
Codec ID : S_VOBSUB
Codec ID/Info : Picture based subtitle format used on DVDs
Duration : 1 h 52 min
Bit rate : 15.0 kb/s
Count of elements : 1840
Stream size : 12.0 MiB (0%)
Title : Commentary 1
Language : Thai
Default : No
Forced : No

Text #15
ID : 19
Format : VobSub
Muxing mode : zlib
Codec ID : S_VOBSUB
Codec ID/Info : Picture based subtitle format used on DVDs
Duration : 1 h 52 min
Bit rate : 15.4 kb/s
Count of elements : 2068
Stream size : 12.4 MiB (0%)
Title : Commentary 2
Language : Thai
Default : No
Forced : No

Menu
00:00:00.000 : en:Chapter 01
00:09:11.050 : en:Chapter 02
00:13:30.643 : en:Chapter 03
00:20:58.173 : en:Chapter 04
00:25:17.599 : en:Chapter 05
00:33:07.527 : en:Chapter 06
00:43:43.245 : en:Chapter 07
00:48:15.392 : en:Chapter 08
00:53:39.549 : en:Chapter 09
00:58:51.528 : en:Chapter 10
01:05:23.544 : en:Chapter 11
01:11:33.747 : en:Chapter 12
01:19:17.377 : en:Chapter 13
01:30:30.675 : en:Chapter 14
01:38:04.169 : en:Chapter 15
01:43:30.412 : en:Chapter 16


Share this topic on FacebookShare this topic on GoogleShare this topic on MySpaceShare this topic on TwitterShare this topic on Yahoo




June 23, 2018, 02:59:04 PM
Reply #1
  • Newbie
  • **
  • Thank You: 0
  • Reputation: 0
  • Activity:
    0%
  • Country: pk
  • Posts: 1
  • Topics: 0
  • Join Date: Jun 2018
  • ShareSpark Member

Tags:
 

Related Topics

  Subject / Started by Replies Last post
2 Replies
2171 Views
Last post June 07, 2017, 10:45:35 AM
by Blood Warrior
0 Replies
884 Views
Last post July 18, 2017, 12:10:28 PM
by Nightfire
0 Replies
826 Views
Last post July 18, 2017, 12:32:51 PM
by Nightfire
0 Replies
780 Views
Last post September 04, 2017, 12:36:04 PM
by Nightfire
0 Replies
825 Views
Last post September 12, 2017, 08:41:43 PM
by Nightfire




Back to top