+ ShareSpark.net »  :::: Hollywood Zone » Hollywood Movies (Original Rips) » HEVC / H.265 Releases
|- Thor Ragnarok 2017 1080p 6CH WEB-DL x265-HETeam 1.6GB


100% Bill Offer

Thor Ragnarok 2017 1080p 6CH WEB-DL x265-HETeam 1.6GB

0 Members and 1 Guest are viewing this topic.

January 22, 2018, 11:34:47 AM
  • Addic7ed
  • Royal Member
  • ****
  • Topic Author
  • Thank You: 513
  • Reputation: 185
  • Activity:
    0%
  • Country: np
  • Posts: 1075
  • Topics: 702
  • Join Date: May 2017
  • #Me


 :plot:
Format : Matroska
Format version : Version 4 / Version 2
File size : 1.64 GiB
Duration : 2 h 10 min
Overall bit rate : 1 793 kb/s


Video
ID : 1
Format : HEVC
Format/Info : High Efficiency Video Coding
Format profile : [email protected]@Main
Codec ID : V_MPEGH/ISO/HEVC
Duration : 2 h 10 min
Bit rate : 1 601 kb/s
Width : 1 920 pixels
Height : 800 pixels
Display aspect ratio : 2.40:1
Frame rate mode : Constant
Frame rate : 23.976 (24000/1001) FPS
Color space : YUV
Chroma subsampling : 4:2:0
Bit depth : 8 bits
Bits/(Pixel*Frame) : 0.043
Stream size : 1.46 GiB (89%)


Audio
ID : 2
Format : AAC
Format/Info : Advanced Audio Codec
Format profile : HE-AAC / LC
Codec ID : A_AAC
Duration : 2 h 10 min
Bit rate : 192 kb/s
Channel(s) : 6 channels
Channel positions : Front: L C R, Side: L R, LFE
Sampling rate : 48.0 kHz / 24.0 kHz
Frame rate : 23.438 FPS (1024 SPF)
Compression mode : Lossy
Delay relative to video : -7 ms
Stream size : 178 MiB (11%)


Text
ID : 3
Format : UTF-8
Codec ID : S_TEXT/UTF8
Codec ID/Info : UTF-8 Plain Text
Duration : 2 h 10 min


 :ss: :ss:




 :download: :download:







Share this topic on FacebookShare this topic on GoogleShare this topic on MySpaceShare this topic on TwitterShare this topic on Yahoo




Tags: new 
 

Related Topics

  Subject / Started by Replies Last post
0 Replies
889 Views
Last post January 21, 2018, 11:03:58 AM
by RoBi007
0 Replies
681 Views
Last post January 22, 2018, 11:45:19 AM
by UnikAaYush
2 Replies
1001 Views
Last post January 22, 2018, 04:03:32 PM
by -Ð@Rk.ÐèVi£-
0 Replies
823 Views
Last post January 22, 2018, 04:08:16 PM
by JackRoSe
0 Replies
1181 Views
Last post March 02, 2018, 01:37:58 PM
by UnikAaYush




Back to top