+ ShareSpark.net »  :::: Bollywood Zone » Bollywood Movies (Original Rips) » TeamSSX Bollywood Releases
|- Dwaraka 2014 [18+](Short Movie) BY SAGAR(TeamSSX) 1st On Net


100% Recharge Offer
  • Dwaraka 2014 [18+](Short Movie) BY SAGAR(TeamSSX) 1st On Net 5 1
Currently:  

Dwaraka 2014 [18+](Short Movie) BY SAGAR(TeamSSX) 1st On Net

0 Members and 1 Guest are viewing this topic.

April 01, 2017, 09:52:16 AM
  • Junior Moderator
  • Elite Forces
  • ***
  • Topic Author
  • Thank You: 1791
  • Reputation: 385
  • Activity:
    0%
  • Country: in
  • Posts: 1162
  • Topics: 729
  • Join Date: Oct 2013
  • TeamDMR Owner & Ultimate Uploader


 :info:
Code: [Select]
Encoded & Uploaded By Sagar Singha
Principal Cast: Adil Hussain Priyanka Bose Vasudev Menon
Direction: Isha Pungaliya
Cinematography: Pradeep Padma Kumar
Editing: Gaurav Aggarwal
Sound Design: Harish Ravichandran
Music: Ashwin Ramkrishnan, Prashanth VP
Produced by L.V. Prasad Film and TV Academy
SourCe :   Own
Format : MPEG-4
      Format profile : Base Media / Version 2
      Codec ID : mp42 (isom/mp42)
      File size : 228 MiB
      Duration : 31 min 32 s
      Overall bit rate mode : Variable
      Overall bit rate : 1 012 kb/s
     

   Video #1
      ID : 1
      Format : AVC
      Format/Info : Advanced Video Codec
      Format profile : [email protected]
      Format settings, CABAC : Yes
      Format settings, ReFrames : 3 frames
      Codec ID : avc1
      Codec ID/Info : Advanced Video Coding
      Duration : 31 min 32 s
      Bit rate : 883 kb/s
      Width : 1 280 pixels
      Height : 720 pixels
      Display aspect ratio : 16:9
      Frame rate mode : Constant
      Frame rate : 25.000 FPS
      Color space : YUV
      Chroma subsampling : 4:2:0
      Bit depth : 8 bits
      Scan type : Progressive
      Bits/(Pixel*Frame) : 0.038
      Stream size : 199 MiB (87%)
      Color range : Limited
      Color primaries : BT.709
      Transfer characteristics : BT.709
      Matrix coefficients : BT.709
   Audio #2
      ID : 2
      Format : AAC
      Format/Info : Advanced Audio Codec
      Format profile : LC
      Codec ID : 40
      Duration : 31 min 32 s
      Source duration : 31 min 32 s
      Bit rate mode : Variable
      Bit rate : 126 kb/s
      Channel(s) : 2 channels
      Channel positions : Front: L R
      Sampling rate : 44.1 kHz
      Frame rate : 43.066 FPS (1024 spf)
      Compression mode : Lossy
      Stream size : 28.3 MiB (12%)
      Source stream size : 28.3 MiB (12%)
:ss:




   :download:

Code: [Select]
http://uptobox.com/mifowk90jvxq

http://clicknupload.link/i6srwdt4q7sj

http://rapidgator.net/file/88a7a679b6036600174fe9cdac4276fe/Dwaraka_20BY_20SAGAR_TeamSSX_.mp4

Share this topic on FacebookShare this topic on GoogleShare this topic on MySpaceShare this topic on TwitterShare this topic on Yahoo



Thanks given by:


April 01, 2017, 12:41:03 PM
Reply #1
  • Hero Member
  • ***
  • Thank You: 77
  • Reputation: 6
  • Activity:
    0%
  • Country: in
  • Posts: 317
  • Topics: 142
  • Join Date: Dec 2016
  • ShareSpark Member

April 01, 2017, 01:00:02 PM
Reply #2
  • Junior Moderator
  • Elite Forces
  • ***
  • Topic Author
  • Thank You: 1791
  • Reputation: 385
  • Activity:
    0%
  • Country: in
  • Posts: 1162
  • Topics: 729
  • Join Date: Oct 2013
  • TeamDMR Owner & Ultimate Uploader
this is a short hindi movie.....the man works in a hotel and then the girl came there with his frnd..they met..they love...and for  climax u must seen [email protected]

April 11, 2017, 09:49:19 AM
Reply #3
  • Hero Member
  • ***
  • Thank You: 77
  • Reputation: 6
  • Activity:
    0%
  • Country: in
  • Posts: 317
  • Topics: 142
  • Join Date: Dec 2016
  • ShareSpark Member
this is a short hindi movie.....the man works in a hotel and then the girl came there with his frnd..they met..they love...and for  climax u must seen [email protected]
ooh ok..thanks

Tags:
 

Related Topics





Back to top