+ ShareSpark.net »  :::: Bollywood Zone » Bollywood Movies (Original Rips) » TeamSSX Bollywood Releases
|- P.K(2014) Hindi 720p Bluray (Added Deleted Scene)x264 Aac Sam BY SAGAR Xclusive


100% DTH Offer

P.K(2014) Hindi 720p Bluray (Added Deleted Scene)x264 Aac Sam BY SAGAR Xclusive

0 Members and 1 Guest are viewing this topic.

March 27, 2017, 10:46:14 AM
  • Junior Moderator
  • Elite Forces
  • ***
  • Topic Author
  • Thank You: 1791
  • Reputation: 385
  • Activity:
    0%
  • Country: in
  • Posts: 1162
  • Topics: 729
  • Join Date: Oct 2013
  • TeamDMR Owner & Ultimate Uploader

 :info:
Code: [Select]
Source                      : Own
Format                      : Matroska
Format version              : Version 4 / Version 2
File size                   : 999 MiB
Duration                    : 2 h 40 min
Overall bit rate mode       : Variable
Overall bit rate            : 870 kb/s
Movie name                  : P.K (2014) Hindi 720p Bluray (Added Deleted Secne) x264 Aac By Sam
Encoded date                : UTC 2016-11-12 18:24:10
Writing application         : mkvmerge v8.1.0 ('Psychedelic Postcard') 32bit
Writing library             : libebml v1.3.1 + libmatroska v1.4.2

Video
ID                          : 1
Format                      : AVC
Format/Info                 : Advanced Video Codec
Format profile              : [email protected]
Format settings, CABAC      : Yes
Format settings, ReFrames   : 3 frames
Codec ID                    : V_MPEG4/ISO/AVC
Duration                    : 2 h 40 min
Bit rate mode               : Variable
Bit rate                    : 804 kb/s
Maximum bit rate            : 8 000 kb/s
Width                       : 1 280 pixels
Height                      : 544 pixels
Display aspect ratio        : 2.35:1
Frame rate mode             : Constant
Frame rate                  : 23.976 (24000/1001) FPS
Standard                    : NTSC
Color space                 : YUV
Chroma subsampling          : 4:2:0
Bit depth                   : 8 bits
Scan type                   : Progressive
Bits/(Pixel*Frame)          : 0.048
Stream size                 : 923 MiB (92%)
Writing library             : x264 core 114
Default                     : Yes
Forced                      : No
Color range                 : Limited
Color primaries             : BT.709
Transfer characteristics    : BT.709
Matrix coefficients         : BT.709

Audio
ID                          : 2
Format                      : AAC
Format/Info                 : Advanced Audio Codec
Format profile              : LC
Codec ID                    : A_AAC
Duration                    : 2 h 40 min
Bit rate                    : 63.9 kb/s
Channel(s)                  : 2 channels
Channel positions           : Front: L R
Sampling rate               : 44.1 kHz
Frame rate                  : 43.066 FPS (1024 spf)
Compression mode            : Lossy
Stream size                 : 73.3 MiB (7%)
Language                    : Hindi
Default                     : Yes
Forced                      : Yes

Text
ID                          : 3
Format                      : UTF-8
Codec ID                    : S_TEXT/UTF8
Codec ID/Info               : UTF-8 Plain Text
Duration                    : 1 h 1 min
Bit rate                    : 0 b/s
Count of elements           : 3
Stream size                 : 333 Bytes (0%)
Default                     : Yes
Forced                      : No
 Give Proper Credit To Olddilli Where Ever You Release
:ss:





 :download:

Code: [Select]
http://uptobox.com/urktritixegv

http://clicknupload.link/il2ggovsg5u7

http://www.uppit.com/b0k22jlvi8at

Share this topic on FacebookShare this topic on GoogleShare this topic on MySpaceShare this topic on TwitterShare this topic on Yahoo

« Last Edit: March 27, 2017, 12:37:15 PM by sagarsingha »


Thanks given by:


March 27, 2017, 10:49:09 AM
Reply #1
  • Devoted Member
  • **
  • Thank You: 40
  • Reputation: 23
  • Activity:
    0.2%
  • Posts: 104
  • Topics: 37
  • Join Date: Jun 2016
  • ShareSpark Member

March 27, 2017, 12:17:11 PM
Reply #2
  • βĂĂР ŐŦ МĂŚŤĔŔ МĨŃĎŚ
  • Conqueror (Inactive)
  • Hot Member
  • *****
  • Thank You: 105
  • Reputation: 93
  • Activity:
    0%
  • Country: in
  • Posts: 512
  • Topics: 312
  • Join Date: Nov 2014
  • ShareSpark Member
Sagar bro have u encoded this movie if yes then only it is a Team SSD release if you haven't done so please remove Team SSX tag.

If You Like Any User's Post Then Please Add Rep+ And "Thank You"
For Their Hard Work.......

March 27, 2017, 12:43:34 PM
Reply #3
  • Junior Moderator
  • Elite Forces
  • ***
  • Topic Author
  • Thank You: 1791
  • Reputation: 385
  • Activity:
    0%
  • Country: in
  • Posts: 1162
  • Topics: 729
  • Join Date: Oct 2013
  • TeamDMR Owner & Ultimate Uploader

 

Related Topics

  Subject / Started by Replies Last post
1 Replies
1068 Views
Last post February 16, 2014, 04:46:11 PM
by DY419
1 Replies
671 Views
Last post October 04, 2015, 04:26:27 PM
by abcxyz1
3 Replies
1808 Views
Last post May 31, 2016, 05:28:27 PM
by Nazar
0 Replies
592 Views
Last post November 25, 2016, 12:29:22 AM
by shahana
0 Replies
626 Views
Last post December 08, 2016, 10:43:15 PM
by shahana




Back to top